funxd.pw
12Okt/191

X-Men.Dark.Phoenix.2019.German.DTS.DL.1080p.BluRay.x265-UNFIrED

X-Men - Dark Phoenix (2019)
Originaltitel: Dark Phoenix

Etwa zehn Jahre nachdem sie es mit dem mächtigen Mutanten Apocalypse aufgenommen haben, sind die X-Men rund um Charles Xavier zu Helden geworden. Doch der damit einhergehende Ruhm steigt dem an den Rollstuhl gefesselten Telepathen zu Kopf, so dass er seine Schützlinge auf immer gefährlichere Missionen schickt. Für ihren jüngsten Auftrag schickt er die X-Men ins Weltall, wo sie verunglückte Astronauten retten sollen. Doch dabei wird ihr Raumschiff von einer Sonneneruption getroffen, die Jean Grey zwar absorbieren und umlenken kann, doch durch die enorme Energie erwacht eine mysteriöse Macht in ihr: die Phoenix Force. Jeans neue Kräfte lassen sich nur schwer kontrollieren und rufen schließlich auch eine außerirdische Gestaltwandlerin auf den Plan, die Jagd auf sie macht…

Video: BD-RIP
Audio: Dolby Digital 5.1
Sprache: GER / ENG
Dauer: 113 min.
Format: x265 / mkv
Size: 3540 MB
IMDB: [ 6.0 ]
Trailer: [ X-Men - Dark Phoenix ]

Release: X-Men.Dark.Phoenix.2019.German.DTS.DL.1080p.BluRay.x265-UNFIrED

Share-Online.biz // Rapidgator.net

veröffentlicht unter: 2019, Action, Science-Fiction Kommentar schreiben
Kommentare (1) Trackbacks (0)
  1. Video
    ID : 1
    Format : HEVC
    Format/Info : High Efficiency Video Coding
    Format profile : [email protected]@Main
    Codec ID : V_MPEGH/ISO/HEVC
    Duration : 1 h 53 min
    Bit rate : 2 153 kb/s
    Width : 1 920 pixels
    Height : 804 pixels
    Display aspect ratio : 2.40:1
    Frame rate mode : Constant
    Frame rate : 23.976 (24000/1001) FPS
    Color space : YUV
    Chroma subsampling : 4:2:0
    Bit depth : 8 bits
    Bits/(Pixel*Frame) : 0.058
    Stream size : 1.71 GiB (48%)
    Writing library : x265 2.9+1-169e76b6bbcc:[Windows][GCC 8.2.0][64 bit] 8bit+10bit+12bit
    Default : Yes
    Forced : No

    Audio #1
    ID : 2
    Format : DTS
    Format/Info : Digital Theater Systems
    Codec ID : A_DTS
    Duration : 1 h 53 min
    Bit rate mode : Constant
    Bit rate : 768 kb/s
    Channel(s) : 6 channels
    Channel layout : C L R Ls Rs LFE
    Sampling rate : 48.0 kHz
    Frame rate : 93.750 FPS (512 SPF)
    Bit depth : 24 bits
    Compression mode : Lossy
    Stream size : 626 MiB (17%)
    Language : German
    Default : Yes
    Forced : No

    Audio #2
    ID : 3
    Format : DTS
    Format/Info : Digital Theater Systems
    Codec ID : A_DTS
    Duration : 1 h 53 min
    Bit rate mode : Constant
    Bit rate : 1 509 kb/s
    Channel(s) : 6 channels
    Channel layout : C L R Ls Rs LFE
    Sampling rate : 48.0 kHz
    Frame rate : 93.750 FPS (512 SPF)
    Bit depth : 24 bits
    Compression mode : Lossy
    Stream size : 1.20 GiB (34%)
    Language : English
    Default : No
    Forced : No


Leave a comment

Noch keine Trackbacks.